Details for this torrent 

Warning! Use a VPN When Downloading Torrents!
Your Country is . IP Address is
Your Internet Provider can see when you download torrents! Hide your IP ADDRESS with a VPN!
We strongly recommend Trust.Zone VPN to hide your torrenting. It's FREE!
HIDE ME NOW

For Latest Updates Join Us On Reddit And Follow On Twitter
please report any problem and contact us at [email protected]


We Need Your Help Please Donate And Support US

Have I Got a Bit More News for You S58E03. revittony
Type:
Video > TV shows
Files:
1
Size:
508.9 MiB (533615765 Bytes)
Info:
IMDB
Tag(s):
tt0098820
Uploaded:
2019-10-29 11:25:56 GMT
By:
revittony1 Trusted
Seeders:
6
Leechers:
1
Comments
0  

Info Hash:
01BF4C13C493C32EA7119B6E81765FA58C896CB1




(Problems with magnets links are fixed by upgrading your torrent client!)
 https://www.imdb.com/title/tt0098820


 
Format : MPEG-4 
Format profile : Base Media 
Codec ID : isom (isom/iso2/avc1/mp41) 
File size : 503 MiB 
Duration : 42 min 8 s 
Overall bit rate : 1 668 kb/s 



Video 
ID : 1 
Format : AVC 
Format/Info : Advanced Video Codec 
Format profile : [email protected] 
Format settings : CABAC / 4 Ref Frames 
Format settings, CABAC : Yes 
Format settings, Reference frames : 4 frames 
Format settings, GOP : M=8, N=96 
Codec ID : avc1 
Codec ID/Info : Advanced Video Coding 
Duration : 42 min 8 s 
Bit rate : 1 535 kb/s 
Width : 960 pixels 
Height : 540 pixels 
Display aspect ratio : 16:9 
Frame rate mode : Constant 
Frame rate : 25.000 FPS 
Color space : YUV 
Chroma subsampling : 4:2:0 
Bit depth : 8 bits 
Scan type : Progressive 
Bits/(Pixel*Frame) : 0.118 
Stream size : 463 MiB (92%) 
Color range : Limited 
Color primaries : BT.709 
Transfer characteristics : BT.709 
Matrix coefficients : BT.709 
Codec configuration box : avcC 

Audio 
ID : 2 
Format : AAC LC 
Format/Info : Advanced Audio Codec Low Complexity 
Codec ID : mp4a-40-2 
Duration : 42 min 8 s 
Bit rate mode : Constant 
Bit rate : 128 kb/s 
Channel(s) : 2 channels 
Channel layout : L R 
Sampling rate : 48.0 kHz 
Frame rate : 46.875 FPS (1024 SPF) 
Compression mode : Lossy 
Stream size : 38.6 MiB (8%) 
Language : English 
Default : Yes 
Alternate group : 1