Warning! Use a VPN When Downloading Torrents!
Your IP Address is . Location
Your Internet Provider can see when you download torrents! Hide your IP Address with a VPN
The PirateBay requires Trust.Zone VPN to hide your torrenting. It's FREE!
HIDE ME NOW

Details for this torrent  

Riviera Season 2 720P. revittony
Type:
Video > TV shows
Files:
12
Size:
3.58 GiB (3842725201 Bytes)
Info:
IMDB
Tag(s):
tt5936448
Uploaded:
2019-05-29 12:16:27 GMT
By:
revittony1 Trusted
Seeders:
3
Leechers:
0
Comments
0  

Info Hash:
D66D1E93D1E7849D66CB88C3D9FA73334C2FFAC8




(Problems with magnets links are fixed by upgrading your torrent client!)
 https://www.imdb.com/title/tt5936448


 
Format : Matroska 
Format version : Version 4 
File size : 467 MiB 
Duration : 49 min 12 s 
Overall bit rate : 1 326 kb/s 
Writing application : Lavf57.56.101 
Writing library : Lavf57.56.101 
ErrorDetectionType : Per level 1 

Video 
ID : 1 
Format : AVC 
Format/Info : Advanced Video Codec 
Format profile : [email protected] 
Format settings : CABAC / 4 Ref Frames 
Format settings, CABAC : Yes 
Format settings, Reference frames : 4 frames 
Codec ID : V_MPEG4/ISO/AVC 
Duration : 49 min 12 s 
Bit rate : 3 379 kb/s 
Width : 1 280 pixels 
Height : 720 pixels 
Display aspect ratio : 16:9 
Frame rate mode : Constant 
Frame rate : 50.000 FPS 
Color space : YUV 
Chroma subsampling : 4:2:0 
Bit depth : 8 bits 
Scan type : Progressive 
Bits/(Pixel*Frame) : 0.073 
Stream size : 1.16 GiB 
Writing library : x264 core 148 r2748 97eaef2  
Default : Yes 
Forced : No 
Color range : Full 

Audio 
ID : 2 
Format : AAC LC 
Format/Info : Advanced Audio Codec Low Complexity 
Codec ID : A_AAC-2 
Duration : 49 min 12 s 
Bit rate : 384 kb/s 
Channel(s) : 2 channels 
Channel layout : L R 
Sampling rate : 48.0 kHz 
Frame rate : 46.875 FPS (1024 SPF) 
Compression mode : Lossy 
Stream size : 135 MiB (29%)  
Writing library : Lavc57.64.101 aac 
Language : English 
Default : Yes 
Forced : No