Warning! Use a VPN When Downloading Torrents!
Your IP Address is . Location
Your Internet Provider can see when you download torrents! Hide your IP Address with a VPN
The PirateBay requires Trust.Zone VPN to hide your torrenting. It's FREE!
HIDE ME NOW

Details for this torrent 

QI XL_P S16E11 Potpourri. revittony
Type:
Video > TV shows
Files:
1
Size:
600.46 MiB (629625899 Bytes)
Info:
IMDB
Tag(s):
tt0380136
Uploaded:
2019-03-17 11:49:49 GMT
By:
revittony1 Trusted
Seeders:
2
Leechers:
0
Comments
0  

Info Hash:
F936D438996CAFE0DEF5D770DE08FDE26039DAE0




(Problems with magnets links are fixed by upgrading your torrent client!)
www.imdb.com/title/tt0380136


Format : MPEG-4 
Format profile : Base Media 
Codec ID : isom (isom/iso2/avc1/mp41) 
Overall bit rate mode : Variable 
Overall bit rate : 1 701 kb/s 


Video 
ID : 1 
Format : AVC 
Format/Info : Advanced Video Codec 
Format profile : [email protected] 
Format settings : CABAC / 4 Ref Frames 
Format settings, CABAC : Yes 
Format settings, RefFrames : 4 frames 
Format settings, GOP : M=8, N=96 
Codec ID : avc1 
Codec ID/Info : Advanced Video Coding 
Duration : 44 min 14 s 
Bit rate : 1 603 kb/s 
Width : 960 pixels 
Height : 540 pixels 
Display aspect ratio : 16:9 
Frame rate mode : Constant 
Frame rate : 25.000 FPS 
Color space : YUV 
Chroma subsampling : 4:2:0 
Bit depth : 8 bits 
Scan type : Progressive 
Bits/(Pixel*Frame) : 0.124 
Stream size : 507 MiB (94%) 
Color range : Limited 
Color primaries : BT.709 
Transfer characteristics : BT.709 
Matrix coefficients : BT.709 
Codec configuration box : avcC 

Audio 
ID : 2 
Format : AAC LC SBR 
Format/Info : Advanced Audio Codec Low Complexity with Spectral Band Replication 
Commercial name : HE-AAC 
Format settings : Implicit 
Codec ID : mp4a-40-2 
Duration : 44 min 14 s 
Bit rate mode : Variable 
Bit rate : 96.0 kb/s 
Channel(s) : 2 channels 
Channel layout : L R 
Sampling rate : 48.0 kHz 
Frame rate : 23.438 FPS (2048 SPF) 
Compression mode : Lossy 
Stream size : 30.0 MiB (6%) 
Language : English 
Default : Yes 
Alternate group : 1