Warning! Use a VPN When Downloading Torrents!
Your IP Address is . Location
Your Internet Provider can see when you download torrents! Hide your IP Address with a VPN
The PirateBay requires Trust.Zone VPN to hide your torrenting. It's FREE!
HIDE ME NOW

Details for this torrent 

Murdoch Mysteries Season 12. revittony
Type:
Video > TV shows
Files:
20
Size:
4.87 GiB (5229739520 Bytes)
Info:
IMDB
Tag(s):
tt1091909
Uploaded:
2019-03-05 11:50:45 GMT
By:
revittony1 Trusted
Seeders:
0
Leechers:
0
Comments
0  

Info Hash:
BA3035A09B0D373CBDFDE0473964D7D62100F5F8




(Problems with magnets links are fixed by upgrading your torrent client!)
 https://www.imdb.com/title/tt1091909



Format : Matroska 
Format version : Version 4 
Overall bit rate : 812 kb/s 
Encoded date : UTC 2018-09-24 23:32:52 
Writing application : mkvmerge v21.0.0 ('Tardigrades Will Inherit The Earth') 64-bit 
Writing library : libebml v1.3.5 + libmatroska v1.4.8 

Video 
ID : 1 
Format : AVC 
Format/Info : Advanced Video Codec 
Format profile : [email protected] 
Format settings : CABAC / 5 Ref Frames 
Format settings, CABAC : Yes 
Format settings, RefFrames : 5 frames 
Codec ID : V_MPEG4/ISO/AVC 
Duration : 44 min 12 s 
Bit rate : 621 kb/s 
Width : 720 pixels 
Height : 404 pixels 
Display aspect ratio : 16:9 
Frame rate mode : Constant 
Frame rate : 23.976 (24000/1001) FPS 
Color space : YUV 
Chroma subsampling : 4:2:0 
Bit depth : 8 bits 
Scan type : Progressive 
Bits/(Pixel*Frame) : 0.089 
Stream size : 196 MiB (76%) 
Writing library : x264 core 155 r2901 7d0ff22 
Encoding settings : cabac=1 / ref=5 / deblock=1:-3:-3 / analyse=0x3:0x113 / me=hex / subme=8 / psy=1 / psy_rd=1.00:0.15 / mixed_ref=1 / me_range=16 / chroma_me=1 / trellis=2 / 8x8dct=1 / cqm=0 / deadzone=21,11 / fast_pskip=1 / chroma_qp_offset=-3 / threads=13 / lookahead_threads=2 / sliced_threads=0 / nr=0 / decimate=1 / interlaced=0 / bluray_compat=0 / constrained_intra=0 / bframes=3 / b_pyramid=2 / b_adapt=2 / b_bias=0 / direct=3 / weightb=1 / open_gop=0 / weightp=2 / keyint=250 / keyint_min=23 / scenecut=40 / intra_refresh=0 / rc_lookahead=50 / rc=crf / mbtree=1 / crf=19.0 / qcomp=0.60 / qpmin=0 / qpmax=69 / qpstep=4 / ip_ratio=1.40 / aq=1:1.00 
Language : English 
Default : Yes 
Forced : No 
Color range : Limited 
Matrix coefficients : BT.709 

Audio 
ID : 2 
Format : AAC LC 
Format/Info : Advanced Audio Codec Low Complexity 
Codec ID : A_AAC-2 
Duration : 44 min 12 s 
Bit rate : 192 kb/s 
Channel(s) : 2 channels 
Channel layout : L R 
Sampling rate : 44.1 kHz 
Frame rate : 43.066 FPS (1024 SPF) 
Compression mode : Lossy 
Stream size : 59.9 MiB (23%) 
Default : Yes 
Forced : No