Warning! Use a VPN When Downloading Torrents!
Your IP Address is . Location
Your Internet Provider can see when you download torrents! Hide your IP Address with a VPN
The PirateBay requires Trust.Zone VPN to hide your torrenting. It's FREE!
HIDE ME NOW

Details for this torrent 

SheBelieves Cup 2019 Brazil v Japan. revittony
Type:
Video > TV shows
Files:
1
Size:
966.85 MiB (1013817073 Bytes)
Uploaded:
2019-03-04 12:52:24 GMT
By:
revittony1 Trusted
Seeders:
0
Leechers:
1
Comments
0  

Info Hash:
DD0B1104086A7F0EDF871E39D15DAE33C89B7830




(Problems with magnets links are fixed by upgrading your torrent client!)
Format : MPEG-4 
Format profile : Base Media 
Codec ID : isom (isom/iso2/avc1/mp41) 
File size : 967 MiB 
Duration : 2 h 14 min 
Overall bit rate : 1 003 kb/s 
Writing application : Lavf54.63.104 

Video 
ID : 1 
Format : AVC 
Format/Info : Advanced Video Codec 
Format profile : [email protected] 
Format settings : CABAC / 3 Ref Frames 
Format settings, CABAC : Yes 
Format settings, RefFrames : 3 frames 
Codec ID : avc1 
Codec ID/Info : Advanced Video Coding 
Duration : 2 h 14 min 
Bit rate : 867 kb/s 
Width : 1 280 pixels 
Height : 720 pixels 
Display aspect ratio : 16:9 
Frame rate mode : Constant 
Frame rate : 30.000 FPS 
Color space : YUV 
Chroma subsampling : 4:2:0 
Bit depth : 8 bits 
Scan type : Progressive 
Bits/(Pixel*Frame) : 0.031 
Stream size : 836 MiB (86%) 
Writing library : x264 core 155 r2901 7d0ff22 
Color range : Limited 
Color primaries : BT.709 
Transfer characteristics : BT.709 
Matrix coefficients : BT.709 
Codec configuration box : avcC 

Audio 
ID : 2 
Format : AAC LC 
Format/Info : Advanced Audio Codec Low Complexity 
Codec ID : mp4a-40-2 
Duration : 2 h 14 min 
Bit rate mode : Constant 
Bit rate : 128 kb/s 
Channel(s) : 2 channels 
Channel layout : L R 
Sampling rate : 44.1 kHz 
Frame rate : 43.066 FPS (1024 SPF) 
Compression mode : Lossy 
Stream size : 123 MiB (13%) 
Default : Yes 
Alternate group : 1