Warning! Use a VPN When Downloading Torrents!
Your IP Address is . Location
Your Internet Provider can see when you download torrents! Hide your IP Address with a VPN
The PirateBay requires Trust.Zone VPN to hide your torrenting. It's FREE!
HIDE ME NOW

Details for this torrent 

Suits Season 8 eps 11-16. revittony
Type:
Video > TV shows
Files:
8
Size:
1.12 GiB (1207749649 Bytes)
Info:
IMDB
Tag(s):
tt1632701
Uploaded:
2019-02-28 11:09:42 GMT
By:
revittony1 Trusted
Seeders:
35
Leechers:
7
Comments
0  

Info Hash:
72FABF2EC7DF5F7119D193E6A7A61F663E403CAA




(Problems with magnets links are fixed by upgrading your torrent client!)
 https://www.imdb.com/title/tt1632701



Format : Matroska 
Format version : Version 4 
Overall bit rate : 654 kb/s 
Encoded date : UTC 2019-01-24 07:07:30 
Writing application : mkvmerge v8.8.0 ('Wind at my back') 64bit 
Writing library : libebml v1.3.3 + libmatroska v1.4.4 

Video 
ID : 1 
Format : AVC 
Format/Info : Advanced Video Codec 
Format profile : [email protected] 
Format settings : CABAC / 5 Ref Frames 
Format settings, CABAC : Yes 
Format settings, RefFrames : 5 frames 
Codec ID : V_MPEG4/ISO/AVC 
Duration : 42 min 42 s 
Bit rate : 546 kb/s 
Width : 720 pixels 
Height : 404 pixels 
Display aspect ratio : 16:9 
Frame rate mode : Constant 
Frame rate : 23.976 (24000/1001) FPS 
Color space : YUV 
Chroma subsampling : 4:2:0 
Bit depth : 8 bits 
Scan type : Progressive 
Bits/(Pixel*Frame) : 0.078 
Stream size : 167 MiB (83%) 
Writing library : x264 core 157 r2935 545de2f 
Encoding settings : cabac=1 / ref=5 / deblock=1:0:0 / analyse=0x3:0x113 / me=hex / subme=8 / psy=1 / psy_rd=1.00:0.00 / mixed_ref=1 / me_range=16 / chroma_me=1 / trellis=2 / 8x8dct=1 / cqm=0 / deadzone=21,11 / fast_pskip=1 / chroma_qp_offset=-2 / threads=64 / lookahead_threads=3 / sliced_threads=0 / nr=0 / decimate=1 / interlaced=0 / bluray_compat=0 / constrained_intra=0 / bframes=3 / b_pyramid=2 / b_adapt=1 / b_bias=0 / direct=3 / weightb=1 / open_gop=0 / weightp=2 / keyint=250 / keyint_min=23 / scenecut=40 / intra_refresh=0 / rc_lookahead=50 / rc=crf / mbtree=1 / crf=19.0 / qcomp=0.60 / qpmin=0 / qpmax=69 / qpstep=4 / ip_ratio=1.40 / aq=1:1.00 
Default : Yes 
Forced : No 
Color range : Limited 
Matrix coefficients : BT.709 

Audio 
ID : 2 
Format : AAC LC 
Format/Info : Advanced Audio Codec Low Complexity 
Codec ID : A_AAC-2 
Duration : 42 min 42 s 
Bit rate : 107 kb/s 
Channel(s) : 2 channels 
Channel layout : L R 
Sampling rate : 48.0 kHz 
Frame rate : 46.875 FPS (1024 SPF) 
Compression mode : Lossy 
Delay relative to video : 20 ms 
Stream size : 32.6 MiB (16%) 
Default : Yes 
Forced : No