Warning! Use a VPN When Downloading Torrents!
Your IP Address is . Location
Your Internet Provider can see when you download torrents! Hide your IP Address with a VPN
The PirateBay requires Trust.Zone VPN to hide your torrenting. It's FREE!
HIDE ME NOW

Details for this torrent 

Two Pints of Lager and a Packet of Crisps S06. revittony
Type:
Video > TV shows
Files:
11
Size:
3.38 GiB (3631367639 Bytes)
Info:
IMDB
Tag(s):
tt0278251
Uploaded:
2019-02-21 11:59:16 GMT
By:
revittony1 Trusted
Seeders:
0
Leechers:
6
Comments
1  

Info Hash:
916042E84158CCF1966561A1CB30A14ECC45FA73




(Problems with magnets links are fixed by upgrading your torrent client!)
 https://www.imdb.com/title/tt0278251



Format : MPEG-4 
Format profile : Base Media 
Codec ID : isom (isom/iso2/avc1/mp41) 
File size : 354 MiB 
Duration : 28 min 36 s 
Overall bit rate : 1 730 kb/s 


Video 
ID : 1 
Format : AVC 
Format/Info : Advanced Video Codec 
Format profile : [email protected] 
Format settings : CABAC / 4 Ref Frames 
Format settings, CABAC : Yes 
Format settings, RefFrames : 4 frames 
Format settings, GOP : M=8, N=96 
Codec ID : avc1 
Codec ID/Info : Advanced Video Coding 
Duration : 28 min 36 s 
Bit rate : 1 599 kb/s 
Width : 960 pixels 
Height : 540 pixels 
Display aspect ratio : 16:9 
Frame rate mode : Constant 
Frame rate : 25.000 FPS 
Standard : PAL 
Color space : YUV 
Chroma subsampling : 4:2:0 
Bit depth : 8 bits 
Scan type : Progressive 
Bits/(Pixel*Frame) : 0.123 
Stream size : 327 MiB (92%) 
Color range : Limited 
Color primaries : BT.601 PAL 
Transfer characteristics : BT.470 System B/G 
Matrix coefficients : BT.470 System B/G 
Codec configuration box : avcC 

Audio 
ID : 2 
Format : AAC LC 
Format/Info : Advanced Audio Codec Low Complexity 
Codec ID : mp4a-40-2 
Duration : 28 min 35 s 
Bit rate mode : Constant 
Bit rate : 125 kb/s 
Channel(s) : 2 channels 
Channel layout : L R 
Sampling rate : 48.0 kHz 
Frame rate : 46.875 FPS (1024 SPF) 
Compression mode : Lossy 
Stream size : 25.6 MiB (7%) 
Language : English 
Default : Yes 
Alternate group : 1

Comments

Thanks for all these episodes, love the show, cheers :)